<?xml version="1.0" standalone="no"?>
<!DOCTYPE svg PUBLIC "-//W3C//DTD SVG 1.1//EN" "http://www.w3.org/Graphics/SVG/1.1/DTD/svg11.dtd" >
<svg xmlns="http://www.w3.org/2000/svg">
<metadata>Generated by IcoMoon</metadata>
<defs>
<font id="seolight-icon" horiz-adv-x="1024">
<font-face units-per-em="1024" ascent="960" descent="-64" />
<missing-glyph horiz-adv-x="1024" />
<glyph unicode="&#x20;" horiz-adv-x="512" d="" />
<glyph unicode="&#xe900;" glyph-name="start-up" d="M149.484 303.844c-5.797-11.562-3.539-25.539 5.594-34.68l7.336-7.336c21.195 25.117 45.898 52.375 75.859 82.328 2.117 2.117 4.297 3.141 6.422 5.094l-47.195 47.203c-27.437-49.625-43.437-83.531-48.016-92.609zM407.976 174.453c-30.031-30.031-57.219-54.781-82.195-75.992l9.937-9.937c9.219-9.219 23.328-11.437 34.93-5.469 15.539 8.008 39.977 19.508 91.852 48.398l-49.422 49.422c-1.953-2.133-2.977-4.305-5.102-6.422zM391.984 328.125c-21.68 21.68-82.648 2.242-111.289-26.391-95.812-95.812-139.086-163.742-158.516-203.851-5.57-11.492-3.25-25.25 5.781-34.281 9.047-9.055 22.828-11.352 34.328-5.781 39.211 19.039 106.312 62.109 203.265 159.055 31.492 31.508 47.031 90.641 26.453 111.226zM93.641 560.578l-84.852-84.852c-9.594-9.594-11.562-24.445-4.766-36.211 6.633-11.609 20.523-17.523 33.742-13.984 45.859 12.297 86.211 17.492 113.383 10.523 38.656 68.727 80.195 131.992 124.187 189.461-25.445 16.312-109.531 7.227-181.695-64.937zM507.789-60.781c11.555-5.844 25.547-3.586 34.695 5.57l84.859 84.852c65.695 65.711 77.258 150.492 62.352 177.375-64.094-48.305-129.023-89.094-189.601-123.242 4.18-23.602 1.398-46.5-8.484-113.375-1.93-12.945 4.758-25.469 16.18-31.18zM595.601 659.062c-35.086-35.094-35.086-92.18 0-127.273 35.094-35.094 92.187-35.094 127.281 0s35.094 92.18 0 127.273-92.187 35.094-127.281 0zM1022.234 930.734c-1.078 14.836-12.891 26.562-27.68 27.672-73.68 5.547-147.070-3.516-219.008-25.516 5.414-49.422 30.977-102.906 74.617-146.547 44.164-44.156 99.101-69.711 149.406-74.492 19.375 67.898 28.562 140.617 22.664 218.883zM807.742 743.914c-49.922 49.922-80.406 109.797-90.187 168.094-180.148-73.883-352.601-235.226-488.875-461.883l67.703-67.703c46.258 18.781 102.414 23.742 138.031-11.867 35.664-35.672 30.609-91.805 11.836-138l69.93-69.93c174.391 105.101 377.422 270.687 463.758 490.992-59.719 9.023-121.461 39.562-172.195 90.297zM765.304 489.359c-58.477-58.477-153.641-58.477-212.125 0-58.484 58.484-58.484 153.656 0 212.133s153.648 58.477 212.125 0c58.484-58.484 58.484-153.648 0-212.133z" />
<glyph unicode="&#xe901;" glyph-name="light-bulb" d="M628.728 65.159v-29.919c0-23.809-17.488-43.615-40.244-46.986l-7.374-27.18c-4.003-14.749-17.277-25.073-32.658-25.073h-73.113c-15.381 0-28.655 10.324-32.658 25.073l-7.164 27.18c-22.966 3.582-40.454 23.177-40.454 47.197v29.919c0 16.013 12.853 28.866 28.866 28.866h175.934c16.013-0.211 28.866-13.063 28.866-29.077zM764.207 468.438c0-68.056-26.97-129.791-70.795-175.091-33.291-34.555-54.782-78.591-61.946-125.577-3.16-20.227-20.649-35.187-41.297-35.187h-156.55c-20.438 0-38.137 14.749-41.086 34.976-7.374 46.986-29.077 91.654-62.367 125.998-42.983 44.668-69.742 105.35-70.374 172.142-1.475 140.326 110.196 253.893 250.522 254.947 140.115 1.053 253.893-112.303 253.893-252.207zM540.444 621.195c0 15.592-12.642 28.444-28.444 28.444-100.293 0-182.044-81.541-182.044-182.044 0-15.592 12.642-28.444 28.444-28.444 15.592 0 28.444 12.642 28.444 28.444 0 69.109 56.257 125.156 125.156 125.156 15.802 0 28.444 12.642 28.444 28.444zM512 803.45c15.592 0 28.444 12.642 28.444 28.444v99.661c0 15.592-12.642 28.444-28.444 28.444s-28.444-12.642-28.444-28.444v-99.661c0-15.802 12.853-28.444 28.444-28.444zM177.198 468.649c0 15.592-12.642 28.444-28.444 28.444h-99.661c-15.592 0-28.444-12.642-28.444-28.444 0-15.592 12.642-28.444 28.444-28.444h99.661c15.802 0 28.444 12.642 28.444 28.444zM974.907 497.093h-99.661c-15.592 0-28.444-12.642-28.444-28.444 0-15.592 12.642-28.444 28.444-28.444h99.661c15.592 0 28.444 12.642 28.444 28.444 0 15.592-12.642 28.444-28.444 28.444zM235.141 231.822l-70.584-70.584c-11.167-11.167-11.167-29.077 0-40.244 5.478-5.478 12.853-8.217 20.016-8.217s14.538 2.739 20.016 8.217l70.584 70.584c11.167 11.167 11.167 29.077 0 40.244-10.956 11.167-29.077 11.167-40.033 0zM768.843 697.047c7.164 0 14.538 2.739 20.016 8.217l70.584 70.584c11.167 11.167 11.167 29.077 0 40.244s-29.077 11.167-40.244 0l-70.584-70.584c-11.167-11.167-11.167-29.077 0-40.244 5.689-5.478 12.853-8.217 20.227-8.217zM235.141 705.475c5.478-5.478 12.853-8.217 20.016-8.217s14.538 2.739 20.016 8.217c11.167 11.167 11.167 29.077 0 40.244l-70.584 70.584c-11.167 11.167-29.077 11.167-40.244 0s-11.167-29.077 0-40.244l70.795-70.584zM788.859 231.822c-11.167 11.167-29.077 11.167-40.244 0s-11.167-29.077 0-40.244l70.584-70.584c5.478-5.478 12.853-8.217 20.016-8.217s14.538 2.739 20.016 8.217c11.167 11.167 11.167 29.077 0 40.244l-70.374 70.584z" />
<glyph unicode="&#xe902;" glyph-name="safe-shield-protection" d="M566.138 148.685c0 135.304 109.684 244.982 244.982 244.982 28.479 0 46.906-3.4 66.222-9.109 13.007-5.514 17.983 5.349 19.34 10.416 8.85 33.059 13.813 66.773 13.813 100.74 0 2.275-1.27 291.43-1.27 295.002 0 28.516-16.34 28.449-23.634 28.412-52.342-0.249-105.696-0.272-161.821 15.906-116.606 33.62-220.272 124.965-259.682 124.965-38.173 0-115.144-91.349-231.753-124.965-65.755-18.957-128.813-15.439-187.804-12.704-6.932 0.319-17.966 2.157-21.467-21.867-0.884-6.055-5.383-301.497-5.383-304.75 0-288.618 357.072-559.714 446.401-559.714 28.584 0 74.639 22.956 136.625 69.085 8.259 7.133 3.834 11.864 1.391 15.849-22.788 37.195-35.959 80.926-35.959 127.751zM812.659 23.77c-8.252-8.894-22.982-10.272-32.737-3.058l-155.142 114.721c-9.751 7.211-11.763 21.040-4.469 30.731l19.908 26.426c7.295 9.69 21.266 11.747 31.046 4.57l99.487-73.006c9.778-7.174 24.528-5.769 32.777 3.128l140.415 146.974c8.249 8.897 22.263 9.415 31.144 1.149l24.216-22.539c8.881-8.266 9.398-22.304 1.149-31.198l-187.794-197.898z" />
<glyph unicode="&#xe903;" glyph-name="pie-chart" d="M885.224 422.094h-399.022v399.022c0 16.124-12.899 29.024-29.024 29.024-251.969 0-457.070-205.101-457.070-457.070s205.101-457.070 457.070-457.070 457.070 205.101 457.070 457.070c0 15.909-13.114 29.024-29.024 29.024zM457.177-5.953c-219.935 0-399.022 179.087-399.022 399.022 0 210.261 163.393 383.113 369.999 397.948v-397.948c0-16.124 12.899-29.024 29.024-29.024h397.948c-14.834-206.606-187.687-369.999-397.948-369.999zM1023.893 504.435c-0.43 110.935-41.063 217.785-114.375 300.987-86.856 98.251-211.551 154.578-342.695 154.578-16.124 0-29.024-12.899-29.024-29.024v-428.046c0-16.124 12.899-29.024 29.024-29.024h428.046c16.124 0 29.024 12.899 29.024 29.024 0 0.43 0 0.86 0 1.505zM595.846 531.739v368.924c103.625-7.525 200.801-55.468 270.028-133.939 58.047-65.572 92.446-148.128 98.896-234.985h-368.924z" />
<glyph unicode="&#xe904;" glyph-name="layers" d="M1023.998 447.999c0 21.642-12.024 41.102-31.388 50.796l-76.244 38.122 76.244 38.12c0.002 0.002 0.008 0.004 0.008 0.004 19.36 9.69 31.384 29.152 31.384 50.794 0 21.638-12.026 41.1-31.388 50.794l-430.435 215.212c-31.424 15.698-68.94 15.698-100.37-0.002l-430.427-215.22c-19.356-9.686-31.382-29.146-31.382-50.786 0-21.642 12.024-41.102 31.388-50.796l76.242-38.12-76.252-38.126c-19.354-9.69-31.378-29.15-31.378-50.792s12.024-41.102 31.388-50.794l76.242-38.122-76.236-38.118c-19.354-9.67-31.386-29.124-31.394-50.768-0.008-21.656 12.016-41.128 31.388-50.824l430.429-215.216c15.712-7.85 32.942-11.772 50.18-11.772s34.476 3.926 50.19 11.774l430.429 215.216c19.364 9.69 31.39 29.164 31.382 50.82-0.008 21.644-12.040 41.098-31.388 50.762l-76.244 38.122 76.252 38.126c19.356 9.692 31.38 29.152 31.38 50.794zM52.45 617.139c-4.678 2.342-5.374 6.452-5.374 8.692s0.7 6.35 5.366 8.686l430.415 215.208c9.126 4.56 19.136 6.836 29.146 6.836 10.006 0 20.014-2.278 29.134-6.834l430.413-215.206c4.674-2.34 5.374-6.45 5.374-8.69s-0.696-6.35-5.374-8.692l-430.407-215.202c-18.25-9.116-40.038-9.116-58.278-0.002l-430.415 215.204zM971.564 278.851c4.66-2.328 5.358-6.43 5.358-8.672 0.002-2.246-0.696-6.364-5.366-8.7l-430.415-215.208c-18.25-9.116-40.038-9.118-58.278-0.002l-430.413 215.208c-4.678 2.342-5.376 6.458-5.374 8.704 0 2.238 0.696 6.342 5.366 8.674l107.824 53.912 301.551-150.774c15.712-7.85 32.942-11.772 50.178-11.772 17.238 0 34.476 3.926 50.19 11.774l301.543 150.772 107.836-53.916zM971.554 439.311l-430.413-215.208c-18.25-9.116-40.038-9.118-58.278-0.002l-430.413 215.206c-4.678 2.34-5.374 6.45-5.374 8.69 0 2.244 0.696 6.35 5.366 8.688l107.824 53.912 301.551-150.774c15.71-7.85 32.944-11.772 50.178-11.772s34.474 3.924 50.188 11.776l301.547 150.772 107.816-53.908c4.678-2.342 5.374-6.45 5.374-8.692 0.002-2.24-0.696-6.35-5.366-8.688z" />
<glyph unicode="&#xe905;" glyph-name="browser" d="M986.609 886h-949.219c-20.617 0-37.391-16.773-37.391-37.391v-803.453c0-20.617 16.773-37.391 37.391-37.391h949.219c20.617 0 37.391 16.773 37.391 37.391v803.453c0 20.617-16.773 37.391-37.391 37.391zM964 826v-44.805l-350.75-0.852c-9.367-0.023-18.305-3.555-25.172-9.953l-49.344-46.055h-478.734v101.664zM60 67.766v596.578h487.805c9.406 0 18.375 3.531 25.25 9.953l49.367 46.070 341.586 0.836v-653.438zM194.375 768.586c0.18-0.953 0.422-1.914 0.719-2.859 0.281-0.914 0.625-1.859 0.984-2.758 0.375-0.898 0.797-1.797 1.258-2.656s0.961-1.703 1.5-2.523c0.539-0.82 1.141-1.617 1.758-2.359 0.625-0.758 1.281-1.5 1.984-2.203 0.68-0.695 1.414-1.359 2.18-1.977 0.758-0.617 1.555-1.203 2.375-1.742 0.805-0.539 1.664-1.055 2.523-1.516s1.758-0.883 2.656-1.242c0.898-0.383 1.82-0.719 2.766-1 0.938-0.281 1.898-0.523 2.836-0.719 0.961-0.203 1.945-0.344 2.922-0.438 0.977-0.102 1.977-0.141 2.938-0.141 0.977 0 1.977 0.039 2.961 0.141 0.961 0.094 1.938 0.234 2.898 0.438 0.961 0.195 1.922 0.438 2.859 0.719 0.922 0.281 1.867 0.617 2.758 1 0.906 0.359 1.805 0.781 2.664 1.242s1.703 0.977 2.523 1.516c0.813 0.539 1.617 1.125 2.359 1.742 0.781 0.617 1.5 1.281 2.195 1.977 0.703 0.703 1.367 1.445 1.984 2.203 0.617 0.742 1.195 1.539 1.758 2.359 0.523 0.82 1.039 1.664 1.5 2.523s0.883 1.758 1.242 2.656c0.375 0.898 0.719 1.844 1 2.758 0.281 0.945 0.516 1.906 0.719 2.859 0.203 0.961 0.336 1.945 0.438 2.906 0.102 0.977 0.141 1.977 0.141 2.953 0 0.984-0.039 1.961-0.141 2.945-0.102 0.977-0.234 1.961-0.438 2.922-0.203 0.953-0.445 1.914-0.719 2.836-0.281 0.938-0.625 1.859-1 2.758-0.359 0.922-0.781 1.805-1.242 2.664s-0.977 1.719-1.5 2.516c-0.563 0.82-1.141 1.625-1.758 2.383-0.625 0.758-1.281 1.5-1.984 2.18-0.695 0.703-1.414 1.359-2.195 1.977-0.742 0.625-1.547 1.227-2.359 1.766-0.82 0.539-1.664 1.039-2.523 1.5s-1.758 0.875-2.664 1.258c-0.891 0.359-1.836 0.703-2.758 0.977-0.938 0.305-1.898 0.539-2.859 0.727-0.961 0.195-1.938 0.336-2.898 0.438-1.961 0.195-3.938 0.195-5.898 0-0.977-0.102-1.961-0.242-2.922-0.438-0.938-0.188-1.898-0.422-2.836-0.727-0.945-0.273-1.867-0.617-2.766-0.977-0.898-0.383-1.797-0.797-2.656-1.258s-1.719-0.961-2.523-1.5c-0.82-0.539-1.617-1.141-2.375-1.766-0.766-0.617-1.5-1.273-2.18-1.977-0.703-0.68-1.359-1.422-1.984-2.18-0.617-0.758-1.219-1.563-1.758-2.383-0.539-0.797-1.039-1.656-1.5-2.516s-0.875-1.742-1.258-2.664c-0.359-0.898-0.703-1.82-0.984-2.758-0.297-0.922-0.539-1.883-0.719-2.836-0.203-0.961-0.336-1.945-0.438-2.922-0.102-0.984-0.164-1.961-0.164-2.945 0-0.977 0.063-1.977 0.164-2.953 0.102-0.969 0.242-1.945 0.438-2.906zM108.758 751.25c0.766-0.625 1.563-1.203 2.383-1.742 0.797-0.539 1.664-1.063 2.523-1.523 0.859-0.453 1.758-0.875 2.656-1.234 0.898-0.383 1.82-0.719 2.758-1 0.945-0.281 1.883-0.523 2.844-0.719 0.961-0.203 1.938-0.344 2.922-0.445 0.977-0.094 1.953-0.141 2.938-0.141 0.977 0 1.977 0.047 2.961 0.141 0.961 0.102 1.938 0.242 2.898 0.445 0.961 0.195 1.922 0.438 2.859 0.719 0.922 0.281 1.859 0.617 2.758 1 0.898 0.359 1.805 0.781 2.664 1.234 0.859 0.461 1.703 0.984 2.523 1.523 0.813 0.539 1.617 1.117 2.359 1.742 0.758 0.617 1.5 1.281 2.195 1.977 0.703 0.703 1.359 1.438 1.984 2.203 0.617 0.734 1.195 1.539 1.734 2.359s1.063 1.656 1.523 2.516c0.461 0.859 0.875 1.766 1.242 2.664 0.375 0.898 0.719 1.836 1 2.758 0.273 0.938 0.516 1.898 0.719 2.859 0.195 0.961 0.336 1.938 0.438 2.898 0.102 0.984 0.141 1.984 0.141 2.961 0 0.984-0.039 1.961-0.141 2.945-0.102 0.977-0.242 1.953-0.438 2.914-0.203 0.961-0.445 1.898-0.719 2.844-0.281 0.938-0.625 1.859-1 2.758-0.367 0.922-0.781 1.797-1.242 2.656-0.461 0.867-0.984 1.727-1.523 2.523-0.539 0.82-1.117 1.617-1.734 2.383-0.625 0.758-1.281 1.5-1.984 2.18-0.695 0.695-1.438 1.359-2.195 2-0.742 0.594-1.547 1.195-2.359 1.734-0.82 0.547-1.664 1.047-2.523 1.5-0.859 0.461-1.766 0.883-2.664 1.266-0.898 0.359-1.836 0.695-2.758 0.977-0.938 0.297-1.898 0.539-2.859 0.719-0.961 0.203-1.938 0.344-2.898 0.445-1.961 0.195-3.945 0.195-5.898 0-0.984-0.102-1.961-0.242-2.922-0.445-0.961-0.18-1.898-0.422-2.844-0.719-0.938-0.281-1.859-0.617-2.758-0.977-0.898-0.383-1.797-0.805-2.656-1.266-0.859-0.453-1.719-0.953-2.523-1.5-0.82-0.539-1.617-1.141-2.383-1.734-0.758-0.641-1.5-1.305-2.18-2-0.695-0.68-1.359-1.422-1.977-2.18-0.617-0.766-1.219-1.563-1.758-2.383-0.539-0.797-1.039-1.656-1.5-2.523-0.461-0.859-0.883-1.734-1.266-2.656-0.359-0.898-0.695-1.82-0.977-2.758-0.297-0.945-0.539-1.883-0.719-2.844-0.203-0.961-0.336-1.938-0.438-2.914-0.102-0.984-0.164-1.961-0.164-2.945 0-7.898 3.203-15.617 8.797-21.219 0.68-0.695 1.422-1.359 2.18-1.977zM292.375 768.586c0.18-0.953 0.414-1.914 0.719-2.859 0.281-0.914 0.617-1.859 0.977-2.758 0.383-0.898 0.797-1.797 1.258-2.656s0.961-1.703 1.5-2.523c0.547-0.82 1.141-1.617 1.766-2.359 0.617-0.758 1.281-1.5 1.977-2.203 0.68-0.695 1.422-1.359 2.18-1.977 0.766-0.617 1.563-1.203 2.383-1.742 0.797-0.539 1.656-1.055 2.516-1.516 0.867-0.461 1.758-0.883 2.664-1.242 0.898-0.383 1.82-0.719 2.758-1 0.945-0.281 1.898-0.523 2.836-0.719 0.961-0.203 1.945-0.344 2.922-0.438 0.984-0.102 1.984-0.141 2.945-0.141 0.977 0 1.977 0.039 2.953 0.141 0.984 0.094 1.945 0.234 2.922 0.438 0.945 0.195 1.898 0.438 2.844 0.719 0.938 0.281 1.859 0.617 2.758 1 0.898 0.359 1.797 0.781 2.656 1.242 0.867 0.461 1.719 0.977 2.523 1.516 0.82 0.539 1.617 1.125 2.383 1.742 0.758 0.617 1.5 1.281 2.18 1.977 0.695 0.703 1.359 1.445 1.977 2.203 0.625 0.742 1.203 1.539 1.758 2.359 0.523 0.82 1.047 1.664 1.5 2.523 0.461 0.859 0.883 1.758 1.242 2.656 0.383 0.898 0.719 1.844 1 2.758 0.281 0.945 0.516 1.906 0.719 2.859 0.203 0.961 0.344 1.945 0.438 2.906 0.102 0.977 0.141 1.977 0.141 2.953 0 0.984-0.039 1.961-0.141 2.945-0.094 0.977-0.234 1.961-0.438 2.922-0.203 0.953-0.438 1.898-0.719 2.836s-0.617 1.859-1 2.758c-0.359 0.898-0.781 1.805-1.242 2.664-0.453 0.859-0.977 1.719-1.5 2.516-0.555 0.82-1.133 1.625-1.758 2.383-0.617 0.758-1.281 1.5-1.977 2.18-0.68 0.703-1.422 1.359-2.18 1.977-0.766 0.625-1.563 1.227-2.383 1.766-0.797 0.539-1.656 1.039-2.523 1.5-0.859 0.461-1.758 0.875-2.656 1.258-0.898 0.359-1.82 0.703-2.758 0.977-0.945 0.281-1.898 0.539-2.844 0.727-0.977 0.195-1.938 0.336-2.922 0.438-1.953 0.195-3.938 0.195-5.898 0-0.977-0.102-1.953-0.242-2.922-0.438-0.938-0.188-1.891-0.445-2.836-0.727-0.938-0.273-1.859-0.617-2.758-0.977-0.906-0.383-1.797-0.797-2.664-1.258-0.859-0.461-1.719-0.961-2.516-1.5-0.82-0.539-1.625-1.141-2.383-1.766-0.758-0.617-1.5-1.273-2.18-1.977-0.703-0.68-1.359-1.422-1.977-2.18-0.625-0.758-1.219-1.563-1.766-2.383-0.539-0.797-1.039-1.656-1.5-2.516-0.453-0.859-0.875-1.766-1.258-2.664-0.359-0.898-0.703-1.82-0.977-2.758-0.305-0.938-0.539-1.883-0.719-2.836-0.203-0.961-0.344-1.945-0.445-2.922-0.102-0.984-0.156-1.961-0.156-2.945 0-0.977 0.055-1.977 0.156-2.953 0.102-0.969 0.242-1.945 0.445-2.906zM386.945 509.469c-11.367 12.047-30.352 12.609-42.406 1.242l-126.453-119.227c-6.25-5.906-9.836-14.234-9.836-22.836 0.008-8.602 3.602-16.922 9.859-22.82l126.43-119.211c5.797-5.461 13.188-8.172 20.57-8.172 7.977 0 15.93 3.164 21.836 9.422 11.367 12.047 10.805 31.039-1.25 42.406l-104.352 98.391 104.352 98.391c12.063 11.367 12.617 30.359 1.25 42.414zM576.484 516.289c-15.141 6.742-32.867-0.063-39.609-15.203l-107.070-240.438c-6.742-15.141 0.063-32.867 15.203-39.609 3.961-1.766 8.109-2.602 12.188-2.602 11.484 0 22.445 6.633 27.422 17.805l107.070 240.438c6.742 15.141-0.070 32.867-15.203 39.609zM679.461 510.711c-12.055 11.367-31.039 10.805-42.406-1.242-11.367-12.055-10.805-31.047 1.25-42.406l104.352-98.398-104.352-98.391c-12.055-11.367-12.617-30.352-1.25-42.406 5.906-6.258 13.859-9.422 21.836-9.422 7.375 0 14.773 2.711 20.57 8.172l126.43 119.211c6.258 5.898 9.852 14.219 9.859 22.82 0 8.609-3.586 16.93-9.859 22.852z" />
<glyph unicode="&#xe906;" glyph-name="goal" d="M782.627 591.447c50.022 63.764 93.322 100.009 132.097 110.635 7.142 1.961 12.674 7.641 14.468 14.845 1.777 7.186-0.464 14.783-5.864 19.869-113.060 106.092-230.137 51.676-333.437 3.641-102.364-47.589-191.091-88.482-281.655-9.164v47.3c25.681 19.247 40.972 49.156 40.972 81.558 0 34.67-17.348 66.661-46.206 85.471-33.033 22.022-78.434 22.223-112.009 0.359-29.208-18.845-46.652-50.941-46.652-85.83 0-32.595 15.361-62.591 40.972-81.655v-799.259h-66.241c-11.309 0-20.481-9.173-20.481-20.49s9.173-20.49 20.481-20.49h255.406c11.309 0 20.481 9.173 20.481 20.49s-9.173 20.49-20.481 20.49h-66.241v328.64c36.657-24.263 73.541-33.689 110.066-33.689 65.243 0 129.34 29.812 188.859 57.479 104.788 48.692 195.292 90.766 288.115 3.615 7.186-6.696 18.092-7.422 26.031-1.654 7.956 5.759 10.713 16.341 6.573 25.243-43.703 94.031-91.326 170.338-145.252 232.596zM267.264-20.783h-40.98v780.809c6.757-1.4 13.593-2.328 20.49-2.328 6.958 0 13.786 0.919 20.49 2.284zM278.94 807.912l-1.654-1.059c-17.908-10.643-40.972-11.501-62.171 0.639l-1.891 1.225c-17.479 11.282-27.913 30.512-27.913 51.414 0 20.91 10.433 40.131 27.983 51.458 10.039 6.538 21.628 10.004 33.479 10.004 12.026 0 23.606-3.484 33.681-10.206 17.392-11.326 27.781-30.486 27.781-51.256 0-20.762-10.39-39.93-29.296-52.219zM589.882 368.794c-102.355-47.598-191.082-88.499-281.647-9.164v320.168c102.162-67.633 206.102-19.685 298.925 23.466 95.134 44.237 178.452 82.985 262.522 24.525-40.464-21.523-82.574-62.136-129.97-124.92-5.934-7.86-5.435-18.827 1.19-26.127 41.891-46.092 79.939-100.928 115.335-166.311-91.528 39.633-183.379-3.046-266.356-41.637z" />
<glyph unicode="&#xe907;" glyph-name="magnifying-glass" d="M1015.031-11.778l-248.848 248.848c66.753 76.743 107.168 176.873 107.168 286.311 0 240.901-195.945 436.619-436.619 436.619-240.901 0-436.619-195.945-436.619-436.619s195.945-436.619 436.619-436.619c109.439 0 209.568 40.415 286.311 107.168l248.848-248.848c5.903-5.903 13.85-9.082 21.57-9.082s15.667 2.952 21.57 9.082c11.807 11.807 11.807 31.333 0 43.14zM61.19 523.381c0 207.071 168.472 375.315 375.315 375.315 207.071 0 375.315-168.472 375.315-375.315s-168.245-375.542-375.315-375.542c-206.843 0-375.315 168.472-375.315 375.542z" />
<glyph unicode="&#xe908;" glyph-name="target" d="M750.070 509.752c-4.904 12.408-18.938 18.484-31.35 13.584-12.408-4.906-18.488-18.942-13.584-31.35 12.278-31.050 18.5-63.866 18.5-97.54 0-146.28-119.006-265.29-265.29-265.29-146.294 0-265.316 119.010-265.316 265.29s119.022 265.29 265.316 265.29c33.792 0 66.664-6.262 97.704-18.612 12.394-4.938 26.444 1.12 31.378 13.514 4.934 12.398-1.118 26.446-13.514 31.378-36.748 14.624-75.632 22.038-115.566 22.038-172.936 0-313.634-140.682-313.634-313.606s140.692-313.608 313.632-313.608c172.922 0 313.606 140.682 313.606 313.606 0 39.782-7.364 78.574-21.882 115.306zM899.012 520.786c-3.67 12.828-17.036 20.242-29.872 16.58-12.828-3.672-20.25-17.046-16.58-29.872 10.472-36.604 15.782-74.64 15.782-113.044 0-226.088-183.924-410.028-409.998-410.028-226.088 0-410.026 183.938-410.026 410.028s183.936 410.024 410.026 410.024c38.492 0 76.592-5.334 113.236-15.856 12.826-3.68 26.206 3.728 29.886 16.554 3.682 12.826-3.728 26.206-16.554 29.886-40.978 11.768-83.564 17.736-126.568 17.736-252.732-0.002-458.344-205.614-458.344-458.346s205.612-458.346 458.344-458.346c252.716 0 458.316 205.612 458.316 458.346 0 42.904-5.938 85.41-17.648 126.338zM626.556 409.198c-1.184 13.29-12.926 23.050-26.21 21.916-13.29-1.186-23.104-12.922-21.916-26.212 0.306-3.44 0.462-6.958 0.462-10.456 0-66.474-54.080-120.55-120.55-120.55-66.488 0-120.58 54.080-120.58 120.55 0.004 66.49 54.094 120.58 120.582 120.58 3.714 0 7.35-0.162 10.812-0.48 13.298-1.22 25.050 8.552 26.276 21.84 1.224 13.286-8.554 25.048-21.84 26.276-4.928 0.454-10.058 0.684-15.246 0.684-93.13 0-168.898-75.764-168.898-168.896 0-93.116 75.768-168.868 168.898-168.868 93.114 0 168.868 75.752 168.868 168.868-0.002 4.922-0.222 9.888-0.658 14.748zM1020.298 797.472c-7.506 18.124-25.034 29.836-44.652 29.836h-84.238v84.236c0 19.62-11.712 37.146-29.836 44.652-18.116 7.504-38.782 3.39-52.65-10.478l-140.752-140.754c-13.684-13.682-21.218-31.878-21.218-51.236v-136.71l-196.34-196.34c-9.434-9.434-9.434-24.732 0-34.168 4.716-4.716 10.9-7.076 17.082-7.076s12.366 2.36 17.082 7.076l196.342 196.342h136.71c19.358 0 37.556 7.536 51.236 21.216l140.754 140.758c13.872 13.87 17.984 34.532 10.48 52.646zM695.27 753.73c0.002 6.45 2.512 12.514 7.068 17.068l140.752 140.732v-98.376l-147.822-147.822v88.398zM834.9 638.236c-4.488-4.488-10.712-7.066-17.070-7.066h-88.392l147.818 147.818 98.384-0.012-140.74-140.74z" />
<glyph unicode="&#xe909;" glyph-name="earth-globe" d="M858.4 794.4c-92.4 92.6-215.6 143.6-346.4 143.6s-254-51-346.4-143.6-143.6-215.6-143.6-346.4 51-254 143.6-346.4 215.6-143.6 346.4-143.6 254 51 346.4 143.6 143.6 215.6 143.6 346.4-51 254-143.6 346.4zM957.6 470h-190c-1.8 75.6-12.4 148.4-31 213 36.2 18.6 70 42 101 69.6 70-74.8 114.6-173.6 120-282.6zM534 426h189.8c-1.6-69.6-11.2-136.2-27.8-195.8-51.2 20.6-105.8 32.6-162 35.2v160.6zM806 783.2c-25.6-22.6-53.6-41.8-83.2-57.8-7.6 21.2-16.2 41.2-25.8 60-19 37.6-40.6 68.4-64.4 92 65-18.2 124-50.8 173.4-94.2zM534 887.2c45.8-10.2 89-52.4 123.8-121.2 9.4-18.6 17.8-38.4 25.2-59.4-47-19.4-97.2-30.8-149-33.4v214zM696.2 664.4c16.4-59.2 25.8-125.4 27.4-194.6h-189.6v159.2c56.4 2.6 111 14.8 162.2 35.4zM490 470h-189.8c1.6 69.2 11 135.4 27.4 194.6 51.2-20.8 106-32.8 162.2-35.2v-159.4zM490.2 887.2v-214c-51.8 2.6-102.2 14-149 33.4 7.4 21 15.8 40.8 25.2 59.4 34.8 68.8 78 111 123.8 121.2zM391.6 877.4c-23.8-23.6-45.4-54.6-64.4-92-9.4-18.8-18-38.8-25.8-60-29.6 16-57.4 35.2-83.2 57.8 49.4 43.4 108.4 76 173.4 94.2zM186.6 752.6c31-27.6 64.8-50.8 101-69.6-18.6-64.8-29.4-137.4-31-213h-190c5.4 109 50 207.8 120 282.6zM66.6 426h190c1.8-76.2 12.6-149.2 31.4-214.2-36-18.6-69.8-41.6-100.6-69.2-70.6 75-115.4 174-120.8 283.4zM219 112c25.6 22.4 53.4 41.6 82.8 57.4 7.6-20.6 16-40.4 25.4-58.8 19-37.6 40.6-68.4 64.4-92.2-64.6 18.2-123.4 50.6-172.6 93.6zM490.2 8.8c-45.8 10.2-89 52.4-123.8 121.2-9.2 18.2-17.4 37.6-24.8 58.2 46.8 19.4 97 30.8 148.6 33.2v-212.6zM328.2 230.2c-16.6 59.6-26.2 126.2-27.8 195.8h189.8v-160.6c-56.2-2.4-110.8-14.4-162-35.2zM534.2 8.8v212.6c51.6-2.6 101.8-13.8 148.6-33.2-7.4-20.6-15.6-40-24.8-58.2-34.8-68.8-78-111-123.8-121.2zM632.8 18.6c23.8 23.6 45.4 54.6 64.4 92.2 9.4 18.4 17.8 38.2 25.4 58.8 29.4-15.8 57.2-35 82.8-57.4-49.2-43.2-108-75.6-172.6-93.6zM837.2 142.6c-30.8 27.4-64.6 50.6-100.6 69.2 18.8 65 29.6 138.2 31.4 214.2h190c-5.6-109.4-50.4-208.4-120.8-283.4z" />
<glyph unicode="&#xe90a;" glyph-name="e-mail-envelope" d="M0 787.388v-678.776h1024v678.776h-1024zM512.005 368.216l-420.003 368.824h839.996l-419.993-368.824zM344.695 448.119l-294.346-258.481v516.965l294.346-258.483zM382.846 414.611l129.147-113.414 129.147 113.414 291.122-255.65h-840.524l291.108 255.65zM679.293 448.107l294.356 258.496v-516.965l-294.356 258.469z" />
<glyph unicode="&#xe90b;" glyph-name="one-finger-click" d="M832.991 367.977c-35.908 41.366-85.533 68.407-139.754 76.159l-124.474 19.519v217.229c0 51.585-41.971 93.553-93.556 93.553h-1.4c-51.585 0-93.556-41.968-93.556-93.553v-348.863l-128.682 55.149c-25.848 11.076-55.31 8.453-78.797-7.037-23.484-15.483-37.502-41.525-37.502-69.652v-1.174c0-23.804 10.203-46.531 27.992-62.347l216.993-192.956v-93.744c0-13.398 10.856-24.253 24.253-24.253s24.253 10.856 24.253 24.253v104.632c0 6.927-2.962 13.524-8.139 18.122l-225.129 200.19c-7.447 6.623-11.716 16.133-11.716 26.1v1.174c0 11.949 5.724 22.578 15.697 29.159 9.983 6.581 22.012 7.651 32.988 2.946l162.465-69.63c1.494-0.644 3.066-1.148 4.699-1.481 2.429-0.501 4.88-0.611 7.276-0.369 0.272 0.026 0.537 0.078 0.805 0.113 0.501 0.068 1.006 0.133 1.5 0.23 0.433 0.084 0.857 0.204 1.281 0.31 0.323 0.084 0.647 0.152 0.967 0.249 0.482 0.142 0.951 0.317 1.42 0.492 0.259 0.094 0.524 0.181 0.779 0.285 0.459 0.188 0.905 0.401 1.348 0.614 0.262 0.126 0.53 0.243 0.786 0.378 0.398 0.21 0.779 0.443 1.164 0.673 0.294 0.178 0.595 0.346 0.883 0.537 0.323 0.213 0.627 0.446 0.941 0.673 0.33 0.243 0.663 0.475 0.983 0.734 0.255 0.207 0.495 0.433 0.744 0.65 0.343 0.304 0.692 0.605 1.019 0.928 0.22 0.217 0.424 0.449 0.634 0.673 0.323 0.343 0.647 0.679 0.947 1.045 0.233 0.278 0.44 0.572 0.66 0.857 0.252 0.33 0.508 0.65 0.744 0.993 0.298 0.437 0.566 0.889 0.834 1.345 0.129 0.217 0.268 0.42 0.391 0.64 1.164 2.108 2.031 4.404 2.529 6.836 0.336 1.627 0.492 3.266 0.492 4.889v385.637c0 24.839 20.208 45.046 45.050 45.046h1.4c24.842 0 45.050-20.208 45.050-45.046v-232.912c0-0.896 0.058-1.782 0.152-2.652-1.281-12.718 7.564-24.366 20.344-26.368l145.132-22.756c0.116-0.019 0.23-0.036 0.346-0.055 87.79-12.473 153.995-88.748 153.995-177.424v-2.477c0-41.037-10.015-81.973-28.962-118.375l-65.791-126.402c-6.186-11.884-1.565-26.527 10.313-32.71 3.577-1.863 7.405-2.749 11.179-2.749 8.754 0 17.21 4.76 21.53 13.061l65.791 126.402c22.536 43.294 34.443 91.968 34.443 140.773v2.477c0.010 54.835-19.787 107.843-55.731 149.261zM474.508 837.796c13.398 0 24.253 10.856 24.253 24.253v73.698c0 13.398-10.856 24.253-24.253 24.253s-24.253-10.856-24.253-24.253v-73.698c0-13.398 10.859-24.253 24.253-24.253zM624.729 640.19c0-13.398 10.856-24.253 24.253-24.253h73.698c13.398 0 24.253 10.856 24.253 24.253s-10.856 24.253-24.253 24.253h-73.698c-13.394 0-24.253-10.859-24.253-24.253zM629.758 777.395c6.206 0 12.414 2.367 17.152 7.101l52.112 52.112c9.472 9.475 9.472 24.829 0 34.301-9.475 9.468-24.829 9.468-34.301 0l-52.115-52.109c-9.472-9.475-9.472-24.829 0-34.301 4.737-4.734 10.946-7.105 17.152-7.105zM283.023 784.5c4.737-4.734 10.946-7.101 17.152-7.101s12.414 2.367 17.152 7.101c9.472 9.475 9.472 24.829 0 34.301l-52.115 52.112c-9.475 9.468-24.829 9.468-34.301 0-9.472-9.475-9.472-24.829 0-34.301l52.112-52.112zM208.316 615.936h73.698c13.398 0 24.253 10.856 24.253 24.253s-10.856 24.253-24.253 24.253h-73.698c-13.398 0-24.253-10.856-24.253-24.253s10.856-24.253 24.253-24.253z" />
<glyph unicode="&#xe90c;" glyph-name="bank-building" d="M977.028 29.313h-930.491c-25.708 0-46.537-20.828-46.537-46.558 0-25.687 20.828-46.515 46.537-46.515h930.469c25.708 0 46.537 20.828 46.537 46.515-0.022 25.73-20.85 46.558-46.515 46.558zM104.685 150.295c-25.708 0-46.537-20.828-46.537-46.537s20.828-46.558 46.537-46.558h814.172c25.708 0 46.537 20.85 46.537 46.558s-20.828 46.537-46.537 46.537h-11.612v418.742h11.612c12.876 0 23.246 10.414 23.246 23.246s-10.414 23.246-23.246 23.246h-814.172c-12.854 0-23.246-10.414-23.246-23.246s10.414-23.246 23.246-23.246h11.634v-418.72h-11.634zM814.172 569.036v-418.72h-139.566v418.72h139.566zM581.532 569.036v-418.72h-139.566v418.72h139.566zM209.349 569.036h139.566v-418.72h-139.566v418.72zM46.537 657.36h930.469c0.153 0 0.327 0 0.458 0 25.73 0 46.537 20.828 46.537 46.537 0 20.436-13.159 37.756-31.438 44.031l-461.662 207.737c-12.135 5.447-26.013 5.447-38.17 0l-465.278-209.349c-20.022-9.020-31.024-30.763-26.406-52.201 4.597-21.438 23.551-36.754 45.491-36.754z" />
<glyph unicode="&#xe90d;" glyph-name="tracking" d="M162.334 864.362c-14.372 8.246-32.706 3.276-40.95-11.094-38.85-67.722-59.384-144.926-59.384-223.268 0-78.34 20.534-155.546 59.384-223.268 8.224-14.334 26.544-19.358 40.95-11.094 14.372 8.244 19.338 26.578 11.094 40.95-33.644 58.65-51.428 125.53-51.428 193.412s17.784 134.762 51.428 193.412c8.244 14.37 3.278 32.706-11.094 40.95zM542 690c0-16.56-13.44-30-30-30s-30 13.44-30 30v30h-60v-180h180v180h-60zM512 960c-181.96 0-330-148.040-330-330 0-171.84 132.040-313.44 300-328.66v-65.34h-30c-16.56 0-30-13.44-30-30v-180c0-49.62 40.38-90 90-90s90 40.38 90 90v180c0 16.56-13.44 30-30 30h-30v65.34c167.96 15.22 300 156.82 300 328.66 0 181.96-148.040 330-330 330zM662 510c0-16.56-13.44-30-30-30h-240c-16.56 0-30 13.44-30 30v240c0 16.56 13.44 30 30 30h240c16.56 0 30-13.44 30-30zM902.616 853.268c-8.244 14.372-26.576 19.338-40.95 11.094-14.372-8.244-19.338-26.578-11.094-40.95 33.644-58.65 51.428-125.53 51.428-193.412s-17.784-134.762-51.428-193.412c-8.244-14.372-3.278-32.706 11.094-40.95 14.42-8.272 32.734-3.228 40.95 11.094 38.85 67.722 59.384 144.928 59.384 223.268 0 78.342-20.534 155.546-59.384 223.268z" />
<glyph unicode="&#xe90e;" glyph-name="options" d="M624.691 231.947c-0.864 14.31-7.138 27.99-17.666 38.516l-75.966 75.98c12.272 3.884 23.346 10.566 32.366 19.584l1.932 1.934c33.478 33.478 30.792 90.632-5.986 127.412-17.5 17.498-40.136 27.918-63.74 29.344-24.528 1.482-47.128-6.816-63.67-23.36l-1.932-1.932c-9.024-9.022-15.708-20.1-19.59-32.376l-75.976 75.978c-22.388 22.388-57.464 23.74-78.196 3.014l-68.858-68.86c-8.426-8.426-11.93-20.674-9.374-32.76 2.78-13.142 11.946-23.888 24.52-28.746 7.938-3.068 15.136-7.794 21.39-14.048l2.182-2.182c10.58-10.58 16.868-24.028 17.702-37.868 0.782-12.928-3.38-24.64-11.716-32.976s-20.052-12.508-32.976-11.714c-13.84 0.834-27.29 7.122-37.868 17.702l-2.182 2.182c-6.254 6.254-10.98 13.452-14.048 21.388-4.858 12.576-15.604 21.742-28.748 24.522-12.086 2.556-24.334-0.948-32.762-9.374l-68.78-68.784c-20.726-20.728-19.376-55.804 3.014-78.194l75.976-75.978c-12.276-3.884-23.354-10.568-32.376-19.588l-1.934-1.934c-33.476-33.478-30.79-90.632 5.988-127.412 19.526-19.524 44.786-29.442 69.204-29.438 21.58 0 42.502 7.748 58.206 23.454l1.934 1.932c9.022 9.022 15.704 20.098 19.588 32.378l75.976-75.978c10.528-10.528 24.208-16.8 38.518-17.666 1.096-0.066 2.19-0.1 3.28-0.1 13.812 0 26.93 5.282 36.4 14.752l65.494 65.494c5.088-12.372 12.576-23.548 22.274-33.25l2.182-2.182c36.778-36.776 93.934-39.462 127.412-5.986 33.478 33.478 30.792 90.634-5.986 127.412l-2.182 2.182c-9.7 9.7-20.876 17.186-33.25 22.274l65.572 65.572c10.218 10.22 15.558 24.68 14.652 39.68zM581.757 220.551l-68.858-68.858c-8.424-8.426-11.93-20.672-9.374-32.758 2.778-13.144 11.944-23.89 24.52-28.75 7.938-3.068 15.136-7.794 21.39-14.050l2.182-2.182c21.182-21.182 23.868-52.96 5.986-70.842-17.88-17.882-49.664-15.196-70.842 5.986l-2.182 2.182c-6.254 6.254-10.982 13.452-14.050 21.388-4.858 12.576-15.606 21.742-28.75 24.52-12.088 2.556-24.334-0.95-32.758-9.374l-68.78-68.782c-2.768-2.768-6.412-3.172-8.984-3.008-4.478 0.27-9.086 2.466-12.644 6.022l-30.478 30.478 66.372 66.372c7.81 7.81 7.81 20.474 0 28.286s-20.474 7.81-28.286 0l-66.372-66.372-20.71 20.71c-7.574 7.574-17.55 11.672-27.604 11.672-3.476 0-6.964-0.492-10.364-1.498-12.296-3.642-21.234-13.32-23.908-25.89-1.68-7.894-5.31-14.674-10.79-20.154l-1.934-1.932c-17.88-17.882-49.664-15.196-70.842 5.986-21.182 21.182-23.868 52.96-5.988 70.842l1.934 1.934c5.48 5.48 12.26 9.11 20.154 10.79 12.572 2.674 22.25 11.614 25.892 23.912 3.916 13.226 0.016 27.772-10.174 37.962l-79.468 79.474c-3.558 3.556-5.752 8.166-6.024 12.644-0.156 2.57 0.242 6.214 3.008 8.984l65.494 65.494c5.088-12.372 12.576-23.548 22.274-33.25l2.182-2.182c36.78-36.778 93.934-39.462 127.414-5.986 33.476 33.478 30.792 90.632-5.988 127.412l-2.182 2.182c-9.7 9.7-20.876 17.186-33.25 22.274l65.572 65.572c5.048 5.044 14.952 3.664 21.628-3.014l79.472-79.47c10.19-10.192 24.736-14.090 37.964-10.174 12.296 3.64 21.234 13.32 23.91 25.892 1.678 7.892 5.308 14.672 10.79 20.152l1.934 1.934c8.336 8.334 20.044 12.494 32.976 11.714 13.84-0.834 27.29-7.122 37.868-17.702 21.182-21.184 23.868-52.964 5.986-70.842l-1.932-1.934c-5.48-5.48-12.26-9.11-20.152-10.79-12.572-2.674-22.252-11.612-25.894-23.91-3.916-13.226-0.018-27.774 10.174-37.966l79.472-79.472c3.556-3.556 5.752-8.164 6.022-12.642 0.156-2.572-0.24-6.216-3.008-8.986zM405.813 158.482c-3.72 3.72-8.88 5.86-14.14 5.86s-10.42-2.14-14.14-5.86c-3.72-3.72-5.86-8.88-5.86-14.14s2.14-10.42 5.86-14.14c3.72-3.72 8.86-5.86 14.14-5.86 5.26 0 10.42 2.14 14.14 5.86s5.86 8.88 5.86 14.14c0 5.26-2.14 10.42-5.86 14.14zM830.524 706.010c-3.72 3.72-8.88 5.86-14.14 5.86s-10.42-2.14-14.14-5.86c-3.72-3.72-5.86-8.88-5.86-14.14s2.14-10.42 5.86-14.14c3.72-3.72 8.88-5.86 14.14-5.86s10.42 2.14 14.14 5.86c3.72 3.72 5.86 8.88 5.86 14.14s-2.14 10.42-5.86 14.14zM980.298 500.339c-10.866 10.866-24.012 19.178-38.144 24.138l67.048 67.048c10.218 10.216 15.558 24.68 14.652 39.68-0.864 14.31-7.138 27.99-17.666 38.518l-74.476 74.488c10.5 4.010 20.048 10.162 27.924 18.040l1.934 1.934c33.476 33.478 30.792 90.632-5.988 127.412-36.776 36.776-93.932 39.462-127.412 5.986l-1.934-1.934c-7.878-7.88-14.032-17.43-18.042-27.934l-74.57 74.568c-22.39 22.39-57.466 23.742-78.196 3.014l-67.048-67.048c-4.96 14.132-13.272 27.278-24.138 38.144l-2.182 2.182c-36.778 36.778-93.934 39.462-127.412 5.986-33.476-33.478-30.792-90.634 5.984-127.408l2.186-2.186c10.864-10.864 24.010-19.176 38.144-24.138l-67.050-67.048c-20.728-20.728-19.376-55.804 3.020-78.2l79.542-79.482c10.194-10.192 24.746-14.088 37.966-10.174 12.296 3.642 21.234 13.322 23.91 25.892 1.678 7.892 5.308 14.672 10.79 20.152l1.934 1.934c8.336 8.336 20.068 12.502 32.976 11.716 13.84-0.836 27.288-7.124 37.868-17.704s16.866-24.028 17.702-37.868c0.782-12.93-3.38-24.642-11.716-32.978l-1.932-1.932c-5.48-5.48-12.26-9.11-20.152-10.79-12.572-2.674-22.25-11.612-25.892-23.908-3.916-13.224-0.020-27.768 10.168-37.96l79.398-79.46c11.762-11.762 27.024-17.718 41.87-17.718 13.414 0 26.488 4.864 36.328 14.704l67.048 67.048c4.96-14.13 13.272-27.278 24.136-38.142l2.184-2.184c36.78-36.778 93.934-39.462 127.412-5.986 33.476 33.478 30.792 90.634-5.986 127.412l-2.188 2.186zM960.18 399.031c-17.88-17.882-49.662-15.196-70.842 5.986l-2.182 2.182c-6.968 6.966-12.19 15.388-15.1 24.354-4.23 13.024-15.134 23.102-28.458 26.302-12.438 2.986-25.066-0.43-33.778-9.142l-70.418-70.418c-2.77-2.768-6.418-3.168-8.984-3.008-4.478 0.27-9.086 2.466-12.638 6.018l-75.908 75.966c12.278 3.884 23.356 10.568 32.378 19.588l1.932 1.934c16.544 16.544 24.84 39.158 23.36 63.67-1.426 23.606-11.846 46.244-29.344 63.74s-40.134 27.92-63.74 29.346c-24.524 1.472-47.128-6.816-63.67-23.358l-1.934-1.934c-9.022-9.024-15.706-20.102-19.588-32.378l-76.052 75.994c-3.558 3.556-5.752 8.166-6.024 12.644-0.156 2.57 0.242 6.216 3.008 8.984l70.42 70.418c8.712 8.712 12.128 21.34 9.142 33.78-3.202 13.324-13.28 24.228-26.302 28.456-8.964 2.912-17.386 8.134-24.35 15.098l-2.186 2.186c-21.182 21.182-23.868 52.96-5.986 70.842 17.878 17.882 49.662 15.198 70.842-5.986l2.182-2.182c6.968-6.966 12.19-15.388 15.102-24.354 4.23-13.024 15.134-23.102 28.458-26.3 12.438-2.986 25.066 0.432 33.778 9.142l70.416 70.418c5.048 5.042 14.95 3.664 21.628-3.014l77.708-77.71c9.85-9.85 23.99-13.868 36.896-10.476 11.978 3.144 21.114 12.13 24.434 24.036 1.894 6.784 5.306 12.676 10.142 17.512l1.934 1.934c17.878 17.882 49.662 15.198 70.842-5.986 21.182-21.182 23.868-52.96 5.986-70.842l-1.934-1.934c-4.836-4.838-10.728-8.25-17.51-10.142-11.906-3.322-20.892-12.456-24.036-24.434-3.388-12.908 0.626-27.046 10.476-36.898l77.622-77.622c3.558-3.556 5.752-8.166 6.024-12.644 0.156-2.57-0.242-6.216-3.010-8.984l-32.096-32.096-66.28 66.282c-7.812 7.81-20.474 7.81-28.284 0s-7.812-20.474 0-28.284l66.28-66.282-10.040-10.040c-8.71-8.712-12.128-21.34-9.142-33.778 3.2-13.324 13.278-24.228 26.3-28.458 8.966-2.912 17.386-8.134 24.354-15.102l2.182-2.182c21.188-21.184 23.872-52.966 5.99-70.844z" />
<glyph unicode="&#xe90f;" glyph-name="settings" d="M511.508 187.844c-69.453 0-134.742 27.047-183.852 76.156-101.375 101.375-101.375 266.32 0 367.695 34.938 34.938 78.781 59.086 126.781 69.844 46.695 10.453 95.297 7.898 140.547-7.406 10.461-3.539 16.078-14.891 12.539-25.352s-14.891-16.078-25.352-12.539c-79.93 27.031-166.617 6.781-226.234-52.836-85.773-85.781-85.773-225.352 0-311.125 41.555-41.555 96.805-64.438 155.57-64.438 58.758 0 114.008 22.883 155.562 64.438 60.25 60.25 80.328 150.93 51.148 231.031-3.781 10.375 1.57 21.859 11.945 25.633 10.383 3.781 21.859-1.563 25.641-11.945 34.477-94.641 10.75-201.805-60.453-273-49.109-49.109-114.398-76.156-183.844-76.156zM600-64h-176c-11.047 0-20 8.953-20 20v85.461c-36.156 9.555-70.719 23.867-103.109 42.695l-60.422-60.422c-3.75-3.75-8.836-5.859-14.141-5.859s-10.391 2.109-14.141 5.859l-124.453 124.453c-3.75 3.75-5.859 8.836-5.859 14.141s2.109 10.391 5.859 14.141l60.422 60.422c-18.828 32.391-33.141 66.953-42.695 103.109h-85.461c-11.047 0-20 8.953-20 20v176c0 11.047 8.953 20 20 20h85.594c9.586 36.094 23.922 70.594 42.75 102.922l-60.609 60.609c-3.75 3.75-5.859 8.836-5.859 14.141s2.109 10.391 5.859 14.141l124.453 124.453c3.75 3.75 8.836 5.859 14.141 5.859s10.391-2.109 14.141-5.859l60.75-60.75c32.297 18.742 66.75 32.992 102.781 42.516v85.969c0 11.047 8.953 20 20 20h176c11.047 0 20-8.953 20-20v-86.102c35.961-9.555 70.359-23.828 102.594-42.57l60.93 60.938c3.75 3.75 8.844 5.859 14.148 5.859 5.297 0 10.391-2.109 14.141-5.859l124.453-124.453c3.75-3.75 5.852-8.836 5.852-14.141s-2.102-10.391-5.852-14.141l-60.938-60.93c18.742-32.242 33.016-66.633 42.57-102.602h86.102c11.047 0 20-8.953 20-20v-176c0-11.047-8.953-20-20-20h-85.969c-9.523-36.031-23.773-70.484-42.516-102.781l60.75-60.75c3.75-3.75 5.859-8.836 5.859-14.141s-2.109-10.391-5.859-14.141l-124.453-124.453c-7.805-7.805-20.469-7.805-28.281 0l-60.609 60.609c-32.328-18.828-66.836-33.164-102.922-42.75v-85.594c0-11.047-8.953-20-20-20zM444-24h136v81.273c0 9.359 6.484 17.461 15.609 19.516 42.5 9.563 82.75 26.281 119.625 49.688 7.906 5.023 18.242 3.883 24.867-2.742l57.57-57.57 96.172 96.164-57.695 57.695c-6.617 6.609-7.766 16.922-2.766 24.828 23.305 36.859 39.93 77.070 49.43 119.516 2.039 9.133 10.148 15.633 19.516 15.633h81.672v136h-81.781c-9.359 0-17.461 6.484-19.516 15.609-9.539 42.375-26.195 82.523-49.508 119.328-5.008 7.906-3.867 18.227 2.75 24.844l57.891 57.891-96.164 96.164-57.891-57.891c-6.617-6.617-16.938-7.758-24.844-2.75-36.797 23.313-76.945 39.969-119.328 49.508-9.125 2.055-15.609 10.156-15.609 19.508v81.789h-136v-81.672c0-9.367-6.492-17.477-15.633-19.516-42.445-9.5-82.656-26.125-119.516-49.43-7.906-5-18.219-3.852-24.828 2.766l-57.695 57.695-96.164-96.172 57.578-57.57c6.625-6.625 7.758-16.961 2.742-24.867-23.414-36.875-40.125-77.125-49.695-119.625-2.055-9.125-10.156-15.609-19.508-15.609h-81.281v-136h81.164c9.367 0 17.477-6.492 19.523-15.633 9.516-42.57 26.211-82.875 49.609-119.813 5.008-7.906 3.867-18.227-2.75-24.844l-57.383-57.383 96.164-96.164 57.383 57.375c6.617 6.625 16.938 7.766 24.844 2.758 36.938-23.398 77.25-40.094 119.813-49.617 9.141-2.039 15.641-10.148 15.641-19.516v-81.164zM511.742 307.742c-77.195 0-140 62.805-140 140 0 77.203 62.805 140 140 140 77.203 0 140-62.797 140-140 0-77.195-62.797-140-140-140zM511.742 547.742c-55.133 0-100-44.859-100-100 0-55.133 44.867-100 100-100 55.141 0 100 44.867 100 100 0 55.141-44.859 100-100 100zM680.727 597.070c-5.109 0-10.227 1.953-14.133 5.852-7.813 7.805-7.82 20.469-0.016 28.281l0.969 0.969c7.805 7.813 20.469 7.82 28.281 0.008 7.813-7.805 7.82-20.469 0.016-28.281l-0.961-0.961c-3.906-3.914-9.031-5.867-14.156-5.867z" />
<glyph unicode="&#xe910;" glyph-name="phone-circle" d="M850.91 787.91c-90.656 90.662-211.201 140.59-339.41 140.59s-248.754-49.928-339.41-140.59c-90.662-90.656-140.59-211.201-140.59-339.41s49.928-248.754 140.59-339.41c90.656-90.662 211.201-140.59 339.41-140.59 3.867 0 7.793 0.047 11.672 0.141 15.539 0.381 27.82 13.271 27.439 28.799-0.375 15.527-13.248 27.791-28.793 27.434-3.434-0.076-6.908-0.123-10.318-0.123-233.66 0-423.75 190.090-423.75 423.75s190.090 423.75 423.75 423.75 423.75-190.090 423.75-423.75c0-85.301-25.348-167.672-73.301-238.219-9.352-13.764-21.902-21.621-38.355-24.035-16.465-2.414-30.738 1.518-43.646 12.006l-22.283 18.111c2.66 2.145 5.285 4.348 7.863 6.633 16.529 14.678 24.756 34.904 23.156 56.959-1.605 22.055-12.656 40.881-31.137 53.027l-89.080 58.541c-25.154 16.535-57.814 15.088-81.275-3.58-13.195-10.494-31.418-9.463-43.342 2.455l-90.451 90.457c-11.918 11.918-12.949 30.141-2.455 43.336 18.668 23.461 20.115 56.121 3.58 81.275l-58.541 89.080c-12.146 18.48-30.973 29.543-53.027 31.137-22.061 1.605-42.281-6.627-56.959-23.156-72.398-81.527-68.689-205.805 8.437-282.926l188.168-188.168c40.125-40.131 93.012-60.387 146.016-60.381 26.227 0 52.459 5.010 77.203 14.977l38.637-31.424c25.096-20.402 55.289-28.711 87.293-24.023 32.010 4.699 58.535 21.316 76.723 48.070 54.316 79.916 83.027 173.227 83.027 269.848 0 128.209-49.928 248.754-140.59 339.41z" />
<glyph unicode="&#xe911;" glyph-name="interface" d="M1009 408.14c-8.286 0-15-6.716-15-15v-202.474c0-10.102-8.218-18.322-18.32-18.322h-66.708c-9.76 0-17.7-7.94-17.7-17.7v-96.314l-161.010 110.906c-2.962 2.034-6.428 3.108-10.020 3.108h-273.976c-10.102 0-18.32 8.218-18.32 18.322v121.226h57.304c8.286 0 15 6.716 15 15s-6.714 15-15 15h-249.976c-3.040 0-6.006-0.922-8.508-2.646l-118.172-81.4v69.046c0 8.284-6.716 15-15 15h-45.414c-10.024 0-18.18 8.156-18.18 18.18v470.532c0 10.024 8.156 18.18 18.18 18.18h102.612c8.284 0 15 6.716 15 15s-6.716 15-15 15h-102.612c-26.566 0.002-48.18-21.612-48.18-48.18v-470.532c0-26.566 21.614-48.18 48.18-48.18h30.412v-82.592c0-5.572 3.090-10.686 8.022-13.278 2.192-1.152 4.588-1.722 6.976-1.722 2.986 0 5.96 0.89 8.51 2.648l137.838 94.944h158.006v-121.226c0-26.644 21.676-48.322 48.32-48.322h270.156l177.116-122c3.018-2.078 6.518-3.13 10.034-3.13 2.816 0 5.642 0.676 8.24 2.040 5.838 3.068 9.464 9.072 9.464 15.668v107.422h54.406c26.644 0 48.32 21.676 48.32 48.322v202.474c0 8.284-6.714 15-15 15zM975.68 555.936h-121.032v274.668c0 26.568-21.614 48.18-48.18 48.18h-585.412c-8.284 0-15-6.716-15-15s6.716-15 15-15h585.414c10.024 0 18.18-8.156 18.18-18.18v-470.532c0-10.024-8.156-18.18-18.18-18.18h-251.85c-8.286 0-15-6.716-15-15s6.714-15 15-15h251.85c26.566 0 48.18 21.614 48.18 48.18v165.864h121.032c10.102 0 18.32-8.218 18.32-18.322v-44.78c0-8.284 6.714-15 15-15s15 6.716 15 15v44.78c-0.002 26.646-21.678 48.322-48.322 48.322zM750.738 789.32h-646.548c-8.284 0-15-6.716-15-15s6.716-15 15-15h646.548c8.286 0 15 6.716 15 15s-6.714 15-15 15zM750.738 609.804h-102.432c-8.286 0-15-6.716-15-15s6.714-15 15-15h102.432c8.286 0 15 6.716 15 15s-6.714 15-15 15zM104.19 609.804c-8.284 0-15-6.716-15-15s6.716-15 15-15h474.678c8.286 0 15 6.716 15 15s-6.714 15-15 15zM104.19 431.14c-8.284 0-15-6.716-15-15s6.716-15 15-15h102.432c8.284 0 15 6.716 15 15s-6.716 15-15 15zM750.738 431.14h-474.678c-8.284 0-15-6.716-15-15s6.716-15 15-15h474.678c8.286 0 15 6.716 15 15s-6.714 15-15 15zM750.738 521.14h-646.548c-8.284 0-15-6.716-15-15s6.716-15 15-15h646.548c8.286 0 15 6.716 15 15s-6.714 15-15 15zM705.664 683.922c0 8.284-6.714 15-15 15h-586.548c-8.284 0-15-6.716-15-15s6.716-15 15-15h586.548c8.286 0 15 6.716 15 15z" />
<glyph unicode="&#xe912;" glyph-name="up-arrow" d="M861.137 625.982c14.436-14.436 14.436-37.164 0-51.6-13.949-13.949-37.164-13.949-51.080 0l-261.641 261.641v-863.38c0-20.126-15.997-36.643-36.123-36.643s-36.643 16.517-36.643 36.643v863.38l-261.153-261.641c-14.436-13.949-37.684-13.949-51.6 0-14.436 14.436-14.436 37.164 0 51.6l323.581 323.581c13.949 13.949 37.164 13.949 51.080 0l323.581-323.581z" />
<glyph unicode="&#xe913;" glyph-name="down-arrow" d="M162.863 270.018c-14.436 14.436-14.436 37.164 0 51.6 13.949 13.949 37.164 13.949 51.080 0l261.641-261.641v863.38c0 20.126 15.997 36.643 36.123 36.643s36.643-16.517 36.643-36.643v-863.38l261.153 261.641c14.436 13.949 37.684 13.949 51.6 0 14.436-14.436 14.436-37.164 0-51.6l-323.581-323.581c-13.949-13.949-37.164-13.949-51.080 0l-323.581 323.581z" />
<glyph unicode="&#xe914;" glyph-name="left-arrow" d="M334.018 797.137c14.436 14.436 37.164 14.436 51.6 0 13.949-13.949 13.949-37.164 0-51.080l-261.641-261.641h863.38c20.126 0 36.643-15.997 36.643-36.123s-16.517-36.643-36.643-36.643h-863.38l261.641-261.153c13.949-14.436 13.949-37.684 0-51.6-14.436-14.436-37.164-14.436-51.6 0l-323.581 323.581c-13.949 13.949-13.949 37.164 0 51.080l323.581 323.581z" />
<glyph unicode="&#xe915;" glyph-name="right-arrow" d="M689.982 98.863c-14.436-14.436-37.164-14.436-51.6 0-13.949 13.949-13.949 37.164 0 51.080l261.641 261.641h-863.38c-20.126 0-36.643 15.997-36.643 36.123s16.517 36.643 36.643 36.643h863.38l-261.641 261.153c-13.949 14.436-13.949 37.684 0 51.6 14.436 14.436 37.164 14.436 51.6 0l323.581-323.581c13.949-13.949 13.949-37.164 0-51.080l-323.581-323.581z" />
</font>
</defs>
</svg>
